&title=ライアーダンサー
&artist=マサラダ
&first=0
&des=conv. by miriiaa
&wholebpm=170
&shortid=11715
&genre=niconicoボーカロイド
&cabinet=DX
&version=maimai DX BUDDiES PLUS
&des_1=
&des_2=
&des_3=
&des_4=サファ太
&des_5=はっぴー
&des_6=
&lv_2=
&lv_3=
&lv_4=
&lv_5=
&lv_7=12+?
&inote_7=(170){1},,5$`4?qq1[4:5],,4$`5?pp8[4:5],,1$`8?qq5[4:5],,8b$`1?pp4[4:5]b,,1$`8?-5[4:1],5$`4?-1[4:1],1$`8?-5[4:1],5$`4?-1[4:1],1$`8?-4[4:1],3$`4?-8[4:1],7$`8?-4[4:1],5$`4?-8[4:1],2$/7$/1?>4[16:6]/8?<5[16:6],3$`2?-7-4-1[4:3],7$`6?-3-8-5[4:3],1$`2?-5-8-3[4:3],5$`6?-1-4-7[4:3],4b$`3?>8-4-2[4:3]b,5b$`6?<1-5-7[4:3]b,4$`3?-8[16:5]/5?-8[16:5],5$`4?-1[16:5]/6?-1[16:5],{2}4$`3?-1[4:1],4$`5?-7[4:1],4$`3?-1[4:1],5$`6?-8[4:1],5$`4?-2[4:1],5$`6?-8[4:1],5$`4?-1[4:1],5$`6?-8[4:1],1$`2?-5[4:1],1$`8?-5[4:1],1$`2?-5[4:1],1$`8?-5[4:1],4$`3?>8[4:1],4$`5?<8[4:1],4$`3?>8[4:1],4$`5?<8[4:1],{1}3b$`2?V85[16:7]b,6b$`7?V14[16:7]b,4b$`3?V16[4:3]b/5?V72[4:3]b,{2},3$`2?<8[4:1],7$`6?>4[4:1],3$`2?<8[4:1],7$`6?>4[4:1],3$`2?<8[4:1],7$`6?>4[4:1],2$`1?V72-6-3[4:4],{1},{4}2$/7$/1?-4[4:1]/8?-5[4:1],
{2},4$`3?>6[2:1],5$`6?<3[2:1],4$`3?>6[2:1],5$`6?<3[2:1],4$`3?>6[2:1],5$`6?<3[2:1],4$`3?q5[16:9],,8$`7?<2[2:1],1$`2?>7[2:1],8$`7?<2[2:1],1$`2?>7[2:1],8$`7?<2[2:1],1$`2?>7[2:1],{4}8$`7?q1[16:9],{1},{2}1$/2$/3?-5[8:1]/8?-6[8:1],7$/8$/1?-3[8:1]/6?-4[8:1],1$/2$/3?-5[8:1]/8?-6[8:1],7$/8$/1?-3[8:1]/6?-4[8:1],1$/2$/3?-5[8:1]/8?-6[8:1],7$/8$/1?-3[8:1]/6?-4[8:1],1$/2$/3?-5[8:1]/8?-6[8:1],7$/8$/1?-3[8:1]/6?-4[8:1],1$/2$/3?-6[8:1]/8?-5[8:1],7$/8$/1?-4[8:1]/6?-3[8:1],1$/2$/3?-6[8:1]/8?-5[8:1],7$/8$/1?-4[8:1]/6?-3[8:1],{1}8b$`7?qq4qq1[4:5]b,,
{4}1$`2?>5[4:1],{2}4$`5?<8[4:1],{4},8$`7?<4[4:1],{2}5$`4?>1[4:1],{4},1$`2?>5[4:1],{2}4$`5?<8[4:1],{4},8$`7?<4[4:1],{2}5$`4?>1[4:1],{4},1b$`2?>5[4:1]b,{2}4b$`5?<8[4:1]b,{4},1b$`8?<5[4:1]b,{2}6b$`5?>2[4:1]b,{4},1b$`2?>5[4:1]b,{2}4b$`5?<8[4:1]b,{4},{1}8b$`7?q4q1[1:1]b,{2},{1}1b$`2?-7-5[16:7]b/8?-3-5[16:7]b,4b$`3?-6-8[16:7]b/5?-2-8[16:7]b,1b$`2?-7-4[16:11]b/8?-3-6[16:11]b,{2},{4},{2}5$`6?-1[4:1],4$`3?-8[4:1],5$`6?-1[4:1],4$`3?-8[4:1],5$`6?-1[4:1],4$`3?V52-6-1-7[16:18],{4},{1},,4$`3?V17-5[16:18],,4b$`5?V73-1[16:11]b,{2},{4},{2}4$`3?V16[2:1],5$`6?V83[2:1],4$`3?V16[2:1],5$`6?V83[2:1],4b$`3?V14-8-5-7[16:19]b,{1},
{2},4$`3?>5[2:1],4$`5?<3[2:1],4$`3?>5[2:1],4$`5?<3[2:1],4$`3?>5[2:1],4$`5?<3[2:1],4$`3?q6[16:7],,8$`7?<1[2:1],8$`1?>7[2:1],8$`7?<1[2:1],8$`1?>7[2:1],8$`7?<1[2:1],8$`1?>7[2:1],8$`7?q1[16:9],,{4},{2}3$/4$/2?-8[8:1]/5?-7[8:1],5$/6$/7?-1[8:1]/4?-2[8:1],3$/4$/2?-8[8:1]/5?-7[8:1],5$/6$/7?-1[8:1]/4?-2[8:1],3$/4$/2?-8[8:1]/5?-7[8:1],5$/6$/7?-1[8:1]/4?-2[8:1],3$/4$/2?-8[8:1]/5?-7[8:1],5$/6$/7?-1[8:1]/4?-2[8:1],3$/4$/2?-7[8:1]/5?-8[8:1],5$/6$/7?-2[8:1]/4?-1[8:1],3$/4$/2?-7[8:1]/5?-8[8:1],5$/6$/7?-2[8:1]/4?-1[8:1],{1}4b$`3?qq8qq5[4:5]b,,
4$/6$/7?V15[16:7]/3?V15[16:7],3$/5$/6?V84[16:7]/2?V84[16:7],4$/6$/7?V15[16:7]/3?V15[16:7],3$/5$/6?V84[16:7]/2?V84[16:7],4$/7$/3?V15[16:7]/8?V26[16:7],2$/5$/1?V73[16:7]/6?V84[16:7],4$/7$/3?V15[16:7]/8?V26[16:7],2$/5$/1?V73[16:7]/6?V84[16:7],{2}2$/8$`1?w5[8:1],{1}1b$/7b$`8?w4[8:1]b,,,
E
